Share with Your Friends

The Human Centipede First Sequence (2009) DVDRiP XViD-KBEC 700MB
iMDB

The Human Centipede First Sequence (2009) DVDRiP XViD-KBEC 700MB

Plot
A mad scientist kidnaps and mutilates a trio of tourists in order to reassemble them into a human centipede, created by stitching their mouths to each others’ rectums.

Information
Genres: Drama, Thriller, Horror
Cast: Dieter Laser, Andreas Leupold, Akihiro Kitamura, Ashley C. Williams
The.Human.Centipede.First.Sequence.2009.DVDRiP.XViD-KBEC.avi
Format : AVI
Format/Info : Audio Video Interleave
File size : 703 MB
Duration : 1h 31mn
Overall bit rate : 1 070 Kbps
Writing application : VirtualDubMod 1.5.10.2 (build 2540/release)
Writing library : VirtualDubMod build 2540/release
Video
ID : 0
Format : MPEG-4 Visual
Format profile : Advanced Simple@L5
Format settings, BVOP : 2
Format settings, QPel : No
Format settings, GMC : No warppoints
Format settings, Matrix : Default (H.263)
Muxing mode : Packed bitstream
Codec ID : XVID
Codec ID/Hint : XviD
Duration : 1h 31mn
Bit rate : 949 Kbps
Width : 640 pixels
Height : 352 pixels
Display aspect ratio : 16:9
Frame rate : 23.976 fps
Color space : YUV
Chroma subsampling : 4:2:0
Bit depth : 8 bits
Scan type : Progressive
Compression mode : Lossy
Bits/(Pixel*Frame) : 0.176
Stream size : 623 MiB (89%)
Writing library : XviD 1.0.3 (UTC 2004-12-20)
Audio
ID : 1
Format : AC-3
Format/Info : Audio Coding 3
Mode extension : CM (complete main)
Format settings, Endianness : Big
Codec ID : 2000
Duration : 1h 31mn
Bit rate mode : Constant
Bit rate : 112 Kbps
Channel count : 1 channel
Channel positions : Front: C
Sampling rate : 48.0 KHz
Bit depth : 16 bits
Compression mode : Lossy
Stream size : 73.6 MiB (10%)
Alignment : Split accross interleaves
Interleave, duration : 42 ms (1.00 video frame)
Interleave, preload duration : 500 ms

The Human Centipede First Sequence (2009) DVDRiP XViD-KBEC 700MB

The Human Centipede First Sequence (2009) DVDRiP XViD-KBEC 700MB

Rapidgator

Click Here to Download

ZippyShare

Click Here to Download

24uploading+MediaFree+gboxes+2drive

Click Here to Download

HugeFile+180upload+Uptobox

Click Here to Download
Share with Your Friends
Written by skull_6682