Share with Your Friends

Download The Imitation Game (2014) DVDSCR X265 HEVC - HDC0OL - 399MB
iMDB

Download The Imitation Game (2014) DVDSCR X265 HEVC – HDC0OL – 399MB

Information

X265 HEVC is the future !
General
Complete name :The Imitation Game (2014) DVDScr X265 HEVC – HDC0OL – 399MB.mp4
Format : MPEG-4
File size : 400 MiB
Duration : 1h 53mn 51s 887ms
Overall BitRate : 491 Kbps

Video
ID : 1
Format : HEVC
Format/Info : High Efficiency Video Coding
Format profile : Main@L2.1
Duration : 1h 53mn
Codec ID : hvc1
Bit rate : 393 Kbps
Width : 720 pixels
Height : 304 pixels
Display aspect ratio : 2.35:1
Frame rate : 29.970 fps
Frame rate mode : Constant
Stream size : 320 MiB (80%)

Audio
ID : 2
Format : MPEG Audio
Format profile : Layer 3
Codec ID : 6B
Duration : 1h 53mn 51s 887ms
Bit rate mode : Variable
Bit rate : 93.4 Kbps
Channel(s) : 2 channels
Sampling rate : 48.0 KHz
Compression mode : Lossy
Stream size : 76.1 MiB (19%)

Download The Imitation Game (2014) DVDSCR X265 HEVC - HDC0OL - 399MB

Download The Imitation Game (2014) DVDSCR X265 HEVC - HDC0OL - 399MB

Download The Imitation Game (2014) DVDSCR X265 HEVC - HDC0OL - 399MB

Download The Imitation Game (2014) DVDSCR X265 HEVC – HDC0OL – 399MB

24Up+UA+BU+HF+CU+RG+UL+180U+UC

Click Here to Download

UPTOBOX

Click Here to Download
Share with Your Friends
Written by HDC0OL