Share with Your Friends

Download The Last Time You Had Fun 2014 HDRip XviD AC3-RARBG
iMDB

Download The Last Time You Had Fun 2014 HDRip XviD AC3-RARBG

Plot

When Clark and Will meet Alison and Ida in a wine bar, the foursome struggle to have the most fun that four, bickering, barely married, pre-middle-aged, decidedly dysfunctional adults are capable of having.

Information

Format : AVI
Format/Info : Audio Video Interleave
File size : 841 MiB
Duration : 1h 18mn
Overall bit rate : 1 494 Kbps

Video
ID : 0
Format : MPEG-4 Visual
Format profile : Simple@L5
Format settings, BVOP : No
Format settings, QPel : No
Format settings, GMC : No warppoints
Format settings, Matrix : Default (H.263)
Codec ID : XVID
Codec ID/Hint : XviD
Duration : 1h 18mn
Bit rate : 1 100 Kbps
Width : 720 pixels
Height : 384 pixels
Display aspect ratio : 1.85:1
Frame rate : 23.976 fps
Color space : YUV
Chroma subsampling : 4:2:0
Bit depth : 8 bits
Scan type : Progressive
Compression mode : Lossy
Bits/(Pixel*Frame) : 0.166
Stream size : 619 MiB (74%)
Writing library : Lavc56.20.100

Audio
ID : 1
Format : AC-3
Format/Info : Audio Coding 3
Mode extension : CM (complete main)
Format settings, Endianness : Big
Codec ID : 2000
Duration : 1h 18mn
Bit rate mode : Constant
Bit rate : 384 Kbps
Channel(s) : 6 channels
Channel positions : Front: L C R, Side: L R, LFE
Sampling rate : 48.0 KHz
Bit depth : 16 bits
Compression mode : Lossy
Stream size : 216 MiB (26%)
Alignment : Aligned on interleaves
Interleave, duration : 42 ms (1.00 video frame)
Interleave, preload duration : 512 ms

Download The Last Time You Had Fun 2014 HDRip XviD AC3-RARBG

Download The Last Time You Had Fun 2014 HDRip XviD AC3-RARBG

Download The Last Time You Had Fun 2014 HDRip XviD AC3-RARBG

24Uploading (Recommended)

Click Here to Download

Uploaded

Click Here to Download

RapidGator

Click Here to Download
Share with Your Friends
Written by ED12