Share with Your Friends

Download The Marine 4 Moving Target 2015 720p WEB-DL DD5.1 H264-FGT
iMDB

Download The Marine 4 Moving Target 2015 720p WEB-DL DD5.1 H264-FGT

Plot

Jake Carter is assigned to protect a “high-value package,” a beautiful whistleblower trying to expose a corrupt army defense contractor.

Information

Video
ID : 1
Format : AVC
Format/Info : Advanced Video Codec
Format profile : High L3.1
Format settings, CABAC : No
Format settings, ReFrames : 2 frames
Codec ID : V_MPEG4/ISO/AVC
Duration : 1h 30mn
Bit rate : 3 825 Kbps
Width : 1 280 pixels
Height : 718 pixels
Display aspect ratio : 16:9
Frame rate mode : Constant
Frame rate : 23.976 fps
Color space : YUV
Chroma subsampling : 4:2:0
Bit depth : 8 bits
Scan type : Progressive
Bits/(Pixel*Frame) : 0.174
Stream size : 2.42 GiB (89%)
Language : English
Default : Yes

Audio
ID : 2
Format : AC-3
Format/Info : Audio Coding 3
Mode extension : CM (complete main)
Format settings, Endianness : Big
Codec ID : A_AC3
Duration : 1h 30mn
Bit rate mode : Constant
Bit rate : 384 Kbps
Channel(s) : 6 channels
Channel positions : Front: L C R, Side: L R, LFE
Sampling rate : 48.0 KHz
Bit depth : 16 bits
Compression mode : Lossy
Stream size : 248 MiB (9%)
Language : English
Default : Yes
Forced : No

Download The Marine 4 Moving Target 2015 720p WEB-DL DD5.1 H264-FGT

Download The Marine 4 Moving Target 2015 720p WEB-DL DD5.1 H264-FGT

HugeFile

Click Here to Download

Click Here to Download


Click Here to Download


Click Here to Download

Uploaded

Click Here to Download

Click Here to Download


Click Here to Download


Click Here to Download

RapidGator

Click Here to Download

Click Here to Download


Click Here to Download


Click Here to Download
Share with Your Friends
Written by ED12