Share with Your Friends

Download 
The Monuments Men (2014) TS XviD - WoW-BB
iMDB

Information

Format : AVI
Format/Info : Audio Video Interleave
Format profile : OpenDML
File size : 1.63 GiB
Duration : 1h 50mn
Overall bit rate : 2 109 Kbps
Movie name : PRJ_20140209.Title1
Writing application : Lavf54.29.104
Original source form/Name : PRJ_20140209

Video
ID : 0
Format : MPEG-4 Visual
Format profile : Simple@L1
Format settings, BVOP : No
Format settings, QPel : No
Format settings, GMC : No warppoints
Format settings, Matrix : Default (H.263)
Codec ID : FMP4
Duration : 1h 50mn
Bit rate : 1 904 Kbps
Width : 720 pixels
Height : 384 pixels
Display aspect ratio : 1.85:1
Frame rate : 29.970 fps
Color space : YUV
Chroma subsampling : 4:2:0
Bit depth : 8 bits
Scan type : Progressive
Compression mode : Lossy
Bits/(Pixel*Frame) : 0.230
Stream size : 1.48 GiB (90%)
Writing library : Lavc54.59.100

Audio
ID : 1
Format : AC-3
Format/Info : Audio Coding 3
Mode extension : CM (complete main)
Format settings, Endianness : Big
Codec ID : 2000
Duration : 1h 50mn
Bit rate mode : Constant
Bit rate : 192 Kbps
Channel count : 2 channels
Channel positions : Front: L R
Sampling rate : 48.0 KHz
Bit depth : 16 bits
Compression mode : Lossy
Stream size : 152 MiB (9%)
Alignment : Aligned on interleaves
Interleave, duration : 32 ms (0.96 video frame)

Download The Monuments Men (2014) TS XviD - WoW-BB

Download
The Monuments Men (2014) TS XviD – WoW-BB

Uploaded

Click Here to Download

Rapidgator

Click Here to Download

Kingfiles

Click Here to Download

Sockshare

Click Here to Download

Billionuploads

Click Here to Download

Uptobox

Click Here to Download

180Upload

Click Here to Download
Share with Your Friends
Written by **Desire**