Share with Your Friends

The Stranger Within 2013 DVDRiP XViD UNiQUE
iMDB

The Stranger Within 2013 DVDRiP XViD UNiQUE

Plot
After a traumatic ordeal, acclaimed actress Emily Moore (Warren) and her psychiatrist husband, Robert (Baldwin), escape on a relaxing vacation to a gorgeous remote Mediterranean island

Information
Format : AVI
Format/Info : Audio Video Interleave
File size : 1.37 GiB
Duration : 1h 30mn
Overall bit rate : 2 173 Kbps
Writing application : VirtualDubMod 1.5.10.2 (build 2540/release)
Writing library : VirtualDubMod build 2540/release

Video
ID : 0
Format : MPEG-4 Visual
Format profile : Advanced Simple@L5
Format settings, BVOP : 2
Format settings, QPel : No
Format settings, GMC : No warppoints
Format settings, Matrix : Default (H.263)
Muxing mode : Packed bitstream
Codec ID : XVID
Codec ID/Hint : XviD
Duration : 1h 30mn
Bit rate : 1 716 Kbps
Width : 720 pixels
Height : 304 pixels
Display aspect ratio : 3:2
Original display aspect ratio : 2.35:1
Frame rate : 23.976 fps
Color space : YUV
Chroma subsampling : 4:2:0
Bit depth : 8 bits
Scan type : Progressive
Compression mode : Lossy
Bits/(Pixel*Frame) : 0.327
Stream size : 1.09 GiB (79%)
Writing library : XviD 64

Audio
ID : 1
Format : AC-3
Format/Info : Audio Coding 3
Mode extension : CM (complete main)
Format settings, Endianness : Big
Codec ID : 2000
Duration : 1h 30mn
Bit rate mode : Constant
Bit rate : 448 Kbps
Channel(s) : 6 channels
Channel positions : Front: L C R, Side: L R, LFE
Sampling rate : 48.0 KHz
Bit depth : 16 bits
Compression mode : Lossy
Stream size : 290 MiB (21%)
Alignment : Aligned on interleaves
Interleave, duration : 42 ms (1.00 video frame)
Interleave, preload duration : 512 ms

The Stranger Within 2013 DVDRiP XViD UNiQUE

The Stranger Within 2013 DVDRiP XViD UNiQUE

RapidGator

Click Here to Download

Click Here to Download

Uploaded.to

Click Here to Download

Click Here to Download

Putlocker

Click Here to Download

Click Here to Download
Share with Your Friends
Written by DaaD