Share with Your Friends

Download

The Walking Dead S04E04 HDTV XVID-Snake 350MB

Plot

Police officer Rick Grimes leads a group of survivors in a world overrun by zombies

Information

General
Format : AVI
Format/Info : Audio Video Interleave
File size : 350 MiB
Duration : 43mn 18s
Overall bit rate mode : Variable
Overall bit rate : 1 131 Kbps

Video
ID : 0
Format : MPEG-4 Visual
Format profile : Advanced Simple@L5
Format settings, BVOP : 1
Format settings, QPel : No
Format settings, GMC : No warppoints
Format settings, Matrix : Default (H.263)
Muxing mode : Packed bitstream
Codec ID : XVID
Codec ID/Hint : XviD
Duration : 43mn 18s
Bit rate : 1 000 Kbps
Width : 720 pixels
Height : 404 pixels
Display aspect ratio : 16:9
Frame rate : 23.976 fps
Color space : YUV
Chroma subsampling : 4:2:0
Bit depth : 8 bits
Scan type : Progressive
Compression mode : Lossy
Bits/(Pixel*Frame) : 0.143
Stream size : 310 MiB (88%)
Writing library : XviD 1.2.1 (UTC 2008-12-04)

Audio
ID : 1
Format : MPEG Audio
Format version : Version 1
Format profile : Layer 3
Mode : Joint stereo
Mode extension : MS Stereo
Codec ID : 55
Codec ID/Hint : MP3
Duration : 43mn 18s
Bit rate mode : Variable
Bit rate : 118 Kbps
Nominal bit rate : 128 Kbps
Channel(s) : 2 channels
Sampling rate : 48.0 KHz
Compression mode : Lossy
Stream size : 36.5 MiB (10%)
Alignment : Aligned on interleaves
Interleave, duration : 24 ms (0.58 video frame)
Interleave, preload duration : 156 ms
Writing library : LAME3.99r
Encoding settings : -m j -V 4 -q 2 -lowpass 17 –abr 128

The Walking Dead S04E04 HDTV XVID-Snake

The Walking Dead S04E04 HDTV XVID-Snake

The Walking Dead S04E04 HDTV XVID-Snake

RapidGator

Click Here to Download

Uploaded.to

Click Here to Download

180Upload

Uploading

BillionUploads

Uploading

PutLocker

Click Here to Download
Share with Your Friends
Written by DaaD