Share with Your Friends

Download Title
iMDB

Download The Walking Dead S05E16 1080p 5.1CH 2.5GB

Plot

The Walking Dead tells the story of the months and years that follow after a zombie apocalypse. It follows a group of survivors, led by Police Officer Rick Grimes, who travel in search of a safe and secure home.

Information

Video
ID : 1
Format : AVC
Format/Info : Advanced Video Codec
Format settings, CABAC : Yes
Format settings, ReFrames : 4 frames
Codec ID : V_MPEG4/ISO/AVC
Duration : 1h 4mn
Bit rate : 5 117 Kbps
Width : 1 916 pixels
Height : 1 076 pixels
Display aspect ratio : 16:9
Frame rate mode : Constant
Frame rate : 23.976 fps
Color space : YUV
Chroma subsampling : 4:2:0
Bit depth : 8 bits
Scan type : Progressive
Bits/(Pixel*Frame) : 0.104
Stream size : 2.31 GiB (91%)
Language : English
Default : Yes
Forced : No
Color primaries : BT.709
Transfer characteristics : BT.709
Matrix coefficients : BT.709
Color range : Limited

Audio
ID : 2
Format : AC-3
Format/Info : Audio Coding 3
Mode extension : CM (complete main)
Format settings, Endianness : Big
Codec ID : A_AC3
Duration : 1h 4mn
Bit rate mode : Constant
Bit rate : 384 Kbps
Channel(s) : 6 channels
Channel positions : Front: L C R, Side: L R, LFE
Sampling rate : 48.0 KHz
Bit depth : 16 bits
Compression mode : Lossy
Stream size : 178 MiB (7%)
Language : English

Download Title

Download The Walking Dead S05E16 1080p 5.1CH 2.5GB


24Uploading


Click Here to Download


Click Here to Download


Click Here to Download


Rapidu


Click Here to Download


Click Here to Download


Click Here to Download


Uploaded


Click Here to Download


Click Here to Download


Click Here to Download


Filefactory


Click Here to Download


Click Here to Download


Click Here to Download
Share with Your Friends
Written by Suushenron1