Share with Your Friends

The White Storm (2013) 1080p WEB-DL x264 AAC-SmY 2GB
iMDB

The White Storm (2013) 1080p WEB-DL x264 AAC-SmY 2GB

Plot
An operation against the notorious druglord in Thailand changed the destiny of a HK narcotic team- the workaholic captain lost his men and bright career; the loyal officer was abandoned and went missing; the undercover cop who was salvaged chose to walk away from the past. Several years later, a drug dealing-related crime brought them together for a final face-off.

Information
Genre : Action
Cast : Sean Lau, Louis Koo, Nick Cheung
Format : Matroska
File size : 2.26 GB
Duration : 2h 14mn
Overall bit rate : 2 407 Kbps
Video
Format : AVC
Format/Info : Advanced Video Codec
Format profile : High@L4.1
Format settings, CABAC : Yes
Format settings, ReFrames : 4 frames
Muxing mode : Container profile=Unknown@4.1
Duration : 2h 14mn
Bit rate : 2 274 Kbps
Nominal bit rate : 2 328 Kbps
Width : 1 920 pixels
Height : 816 pixels
Display aspect ratio : 2.35:1
Frame rate mode : Variable
Frame rate : 24.000 fps
Resolution : 8 bits
Colorimetry : 4:2:0
Scan type : Progressive
Bits/(Pixel*Frame) : 0.060
Stream size : 2.19 GiB (97%)
Writing library : x264 core 128
Audio
Format : AAC
Format/Info : Advanced Audio Codec
Format version : Version 4
Format profile : LC
Format settings, SBR : Yes
Format settings, PS : No
Duration : 2h 14mn
Bit rate : 70.7 Kbps
Channel(s) : 2 channels
Channel positions : L R
Sampling rate : 48.0 KHz
Resolution : 16 bits
Stream size : 71.5 MiB (3%)

The White Storm (2013) 1080p WEB-DL x264 AAC-SmY

The White Storm (2013) 1080p WEB-DL x264 AAC-SmY

The White Storm (2013) 1080p WEB-DL x264 AAC-SmY

The White Storm (2013) 1080p WEB-DL x264 AAC-SmY 2GB

The White Storm (2013) 1080p WEB-DL x264 AAC-SmY 2GB

RocketFile

Click Here to Download

Click Here to Download


Click Here to Download

UnlimitZone

Click Here to Download

Click Here to Download


Click Here to Download

RapidGator

Click Here to Download

Click Here to Download


Click Here to Download

SpeedShare

Click Here to Download

Click Here to Download


Click Here to Download

PutLocker

Click Here to Download

Click Here to Download


Click Here to Download

MedoFire

Click Here to Download

Click Here to Download


Click Here to Download

KingFiles

Click Here to Download

Click Here to Download


Click Here to Download

HulkFile

Click Here to Download

Click Here to Download


Click Here to Download

BillionUploads

Click Here to Download

Click Here to Download


Click Here to Download
Share with Your Friends
Written by skull_6682