Share with Your Friends

Download The Wolf Of Wall Street 2013 1080p WEBRip x264-SuttA
iMDB

Download The Wolf Of Wall Street 2013 1080p WEBRip x264-SuttA

Plot

In The Wolf of Wall Street DiCaprio plays Belfort, a Long Island penny stockbroker who served 20 months in prison for defrauding investors in a massive 1990s securities scheme that involved widespread corruption on Wall Street and in the corporate banking world, including shoe designer Steve Madden.

Information

General
Format : MPEG-4
Format profile : Base Media
Codec ID : isom
File size : 4.49 GiB
Duration : 2h 59mn
Overall bit rate : 3 583 Kbps

Video
ID : 1
Format : AVC
Format/Info : Advanced Video Codec
Format profile : High – L5.0
Format settings, CABAC : Yes
Format settings, ReFrames : 5 frames
Format settings, GOP : M=4, N=13
Codec ID : avc1
Codec ID/Info : Advanced Video Coding
Duration : 2h 59mn
Bit rate mode : Variable
Bit rate : 3 453 Kbps
Width : 1 920 pixels
Height : 1 080 pixels
Display aspect ratio : 16:9
Frame rate mode : Constant
Frame rate : 29.970 fps
Color space : YUV
Chroma subsampling : 4:2:0
Bit depth : 8 bits
Scan type : Progressive
Bits/(Pixel*Frame) : 0.056
Stream size : 4.27 GiB (95%)
Writing library : x264 core 110

Audio
ID : 2
Format : AAC
Format/Info : Advanced Audio Codec
Format profile : LC
Codec ID : 40
Duration : 2h 59mn
Bit rate mode : Variable
Bit rate : 165 Kbps
Channel(s) : 2 channels
Channel positions : Front: L R
Sampling rate : 48.0 KHz
Compression mode : Lossy
Stream size : 212 MiB (5%)

Download The Wolf Of Wall Street 2013 1080p WEBRip x264-SuttA

Download The Wolf Of Wall Street 2013 1080p WEBRip x264-SuttA

Download The Wolf Of Wall Street 2013 1080p WEBRip x264-SuttA

Download The Wolf Of Wall Street 2013 1080p WEBRip x264-SuttA

Download The Wolf Of Wall Street 2013 1080p WEBRip x264-SuttA

MultiUpload

Click Here to Download

Click Here to Download


Click Here to Download


Click Here to Download


Click Here to Download

Sockshare

Click Here to Download

Click Here to Download


Click Here to Download


Click Here to Download


Click Here to Download

Uploaded.to

Click Here to Download

Click Here to Download


Click Here to Download


Click Here to Download


Click Here to Download

RapidGator

Click Here to Download

Click Here to Download


Click Here to Download


Click Here to Download


Click Here to Download
Share with Your Friends
Written by ED12