Share with Your Friends

The Wolverline (2013) WEB-DL XViD-VAiN 1.62GB
iMDB

The Wolverline (2013) WEB-DL XViD-VAiN 1.62GB

Plot
Summoned to Japan by an old acquaintance, Wolverine becomes embroiled in a conflict that forces him to confront his own demons.

Information
Format : AVI
Format/Info : Audio Video Interleave
File size : 1.62 GiB
Duration : 2h 6mn
Overall bit rate : 1 838 Kbps
Writing application : VirtualDubMod 1.5.10.2 (build 2540/release)
Writing library : VirtualDubMod build 2540/release
Video
ID : 0
Format : MPEG-4 Visual
Format profile : Advanced Simple@L5
Format settings, BVOP : 1
Format settings, QPel : No
Format settings, GMC : No warppoints
Format settings, Matrix : Default (MPEG)
Codec ID : XVID
Codec ID/Hint : XviD
Duration : 2h 6mn
Bit rate : 1 698 Kbps
Width : 720 pixels
Height : 358 pixels
Display aspect ratio : 2.011
Frame rate : 29.970 fps
Color space : YUV
Chroma subsampling : 4:2:0
Bit depth : 8 bits
Scan type : Progressive
Compression mode : Lossy
Bits/(Pixel*Frame) : 0.220
Stream size : 1.50 GiB (92%)
Writing library : XviD 1.2.1 (UTC 2008-12-04)
Audio
ID : 1
Format : MPEG Audio
Format version : Version 1
Format profile : Layer 3
Mode : Joint stereo
Codec ID : 55
Codec ID/Hint : MP3
Duration : 2h 6mn
Bit rate mode : Constant
Bit rate : 128 Kbps
Channel(s) : 2 channels
Sampling rate : 48.0 KHz
Compression mode : Lossy
Stream size : 115 MiB (7%)
Alignment : Aligned on interleaves
Interleave, duration : 33 ms (1.00 video frame)
Writing library : LAME3.99r
Encoding settings : -m j -V 4 -q 2 -lowpass 17 -b 128

The Wolverline (2013) WEB-DL XViD-VAiN 1.62GB

The Wolverline (2013) WEB-DL XViD-VAiN 1.62GB

The Wolverline (2013) WEB-DL XViD-VAiN 1.62GB

The Wolverline (2013) WEB-DL XViD-VAiN 1.62GB

The Wolverline (2013) WEB-DL XViD-VAiN 1.62GB

The Wolverline (2013) WEB-DL XViD-VAiN 1.62GB

The Wolverline (2013) WEB-DL XViD-VAiN 1.62GB

UltraMegabit

Click Here to Download

Click Here to Download

RapidGator

Click Here to Download

Click Here to Download

HugeFiles

Click Here to Download

Click Here to Download

KingFiles

Click Here to Download

Click Here to Download

PutLocker

Click Here to Download

Click Here to Download

HulkFile

Click Here to Download

Click Here to Download

Uploaded

Click Here to Download

Click Here to Download

SpeedShare

Click Here to Download

Click Here to Download

MegaFiles

Click Here to Download

Click Here to Download

Share with Your Friends
Written by skull_6682