Share with Your Friends

Download This Is Where I Leave You 2014 HC HDRIP x264 AC3 TiTAN
iMDB

Download This Is Where I Leave You 2014 HC HDRIP x264 AC3 TiTAN

Information

Format : Matroska
Format version : Version 2
File size : 946 MiB
Duration : 1h 42mn
Overall bit rate mode : Variable
Overall bit rate : 1 286 Kbps
Encoded date : UTC 2014-10-04 06:59:28

Video
ID : 1
Format : AVC
Format/Info : Advanced Video Codec
Format profile : High@L4.1
Format settings, CABAC : Yes
Format settings, ReFrames : 3 frames
Codec ID : V_MPEG4/ISO/AVC
Duration : 1h 42mn
Bit rate mode : Variable
Bit rate : 1 069 Kbps
Maximum bit rate : 40.0 Mbps
Width : 720 pixels
Height : 288 pixels
Display aspect ratio : 2.500
Frame rate mode : Constant
Frame rate : 30.000 fps
Color space : YUV
Chroma subsampling : 4:2:0
Bit depth : 8 bits
Scan type : Progressive
Bits/(Pixel*Frame) : 0.172
Stream size : 786 MiB (83%)
Default : Yes
Forced : No
Color primaries : BT.709
Transfer characteristics : BT.709
Matrix coefficients : BT.709

Audio
ID : 2
Format : AC-3
Format/Info : Audio Coding 3
Mode extension : CM (complete main)
Format settings, Endianness : Big
Codec ID : A_AC3
Duration : 1h 42mn
Bit rate mode : Constant
Bit rate : 192 Kbps
Channel(s) : 2 channels
Channel positions : Front: L R
Sampling rate : 48.0 KHz
Bit depth : 16 bits
Compression mode : Lossy
Stream size : 141 MiB (15%)
Language : English
Default : Yes
Forced : No

Download This Is Where I Leave You 2014 HC HDRIP x264 AC3 TiTAN

Download This Is Where I Leave You 2014 HC HDRIP x264 AC3 TiTAN

Uploaded

Click Here to Download

xerver

Click Here to Download

chayfile(HighSpeed)

Click Here to Download

24uploading

Click Here to Download
Share with Your Friends
Written by facer123