Share with Your Friends

Download Thor The Dark World 2013 CAM READNFO XViD v2 - 800MB
iMDB

Download Thor The Dark World 2013 CAM READNFO XViD v2 – 800MB

Plot

Faced with an enemy that even Odin and Asgard cannot withstand, Thor must embark on his most perilous and personal journey yet, one that will reunite him with Jane Foster and force him to sacrifice everything to save us all.

Information

Thor The Dark World 2013 CAM READNFO XViD v2 – JUSTiCE

SOURCE : VIDEO – Thor El mundo oscuro/VOBS/YOUTUBE THXS AUDIO – FANTA/VOBS/YOUTUBE THXS

Video and audio both cleaned and given justice.
Check sample and see…..

Ok yet another thor 2 from us lol.
Video used for main bulk was from a small vob source,but it has some issues …missing intro,missing end credit scenes and also parts in 3D.
Also had the normal issues of colouring,brightness,angles,ar,perspective etc…

Audio was ok but was mono,overpowering and needed some lovin.

WORKDONE

Ok first of i needed to make the video complete,so i had to cut the marvel intro off our last release and same for the end credits inc the two extra
scenes.
from there i had to resize and change the framerates to match the new video we used for the main bulk,then save them.

Now the main video was taken from a small res 320 x 240 and also had borders and cammed at different angles.Opted to just crop the borders as fixing the
angles would mean losing alot of video and its already cropped so yes location and subs are at angles.
Once done i upscaled to a higher res and then used a HQ smoother to clean it up before changing the brightness,contrast,rgb colours etc…

Audio i stripped and changed to 2 channel stereo and then changed the EQ bands and the stereo fields before remuxing.

Now i had 3 files that just needed to be appended together and hey presto.

Overall V6 A5 M6 …..Reason for doing it,just throwing another copy out there for those that want it.My last one had a lack of colouring as the video couldn’t
handle it,where this one as much better colouring but does have some scenes in 3D.
If totally honest ALL copies of Thor 2 so far are pretty poor ….but us encoders can only work with what we have :(

Video
ID : 0
Format : MPEG-4 Visual
Format profile : Advanced Simple@L5
Format settings, BVOP : 2
Format settings, QPel : No
Format settings, GMC : No warppoints
Format settings, Matrix : Default (MPEG)
Muxing mode : Packed bitstream
Codec ID : XVID
Codec ID/Hint : XviD
Duration : 1h 46mn
Bit rate : 955 Kbps
Width : 608 pixels
Height : 240 pixels
Display aspect ratio : 2.533
Frame rate : 29.970 fps
Color space : YUV
Chroma subsampling : 4:2:0
Bit depth : 8 bits
Scan type : Progressive
Compression mode : Lossy
Bits/(Pixel*Frame) : 0.218
Stream size : 726 MiB (87%)
Writing library : XviD 64

Audio
ID : 1
Format : MPEG Audio
Format version : Version 1
Format profile : Layer 3
Mode : Joint stereo
Mode extension : MS Stereo
Codec ID : 55
Codec ID/Hint : MP3
Duration : 1h 46mn
Bit rate mode : Constant
Bit rate : 128 Kbps
Channel(s) : 2 channels
Sampling rate : 44.1 KHz
Compression mode : Lossy
Delay relative to video : 9ms
Stream size : 97.2 MiB (12%)
Alignment : Split accross interleaves
Interleave, duration : 33 ms (1.00 video frame)
Interleave, preload duration : 500 ms

Download Thor The Dark World 2013 CAM READNFO XViD v2 - 800MB

Download Thor The Dark World 2013 CAM READNFO XViD v2 - 800MB

Download Thor The Dark World 2013 CAM READNFO XViD v2 - 800MB

Download Thor The Dark World 2013 CAM READNFO XViD v2 - 800MB

Download Thor The Dark World 2013 CAM READNFO XViD v2 - 800MB

Download Thor The Dark World 2013 CAM READNFO XViD v2 - 800MB

Download Thor The Dark World 2013 CAM READNFO XViD v2 – 800MB

Kingfiles

Click Here to Download

Uploaded.to,RapidGator,Extabit,Kingfiles,UMB

Click Here to Download

Putlocker

Click Here to Download
Share with Your Friends
Written by master