Share with Your Friends

 Red 2 2013 DVDRiP X264 FLAC MURDER
iMDB

Thor The Dark World 2013 iNTERNAL TRUEFRENCH MD CAM XviD

aced with an enemy that even Odin and Asgard cannot withstand, Thor must embark on his most perilous and personal journey yet, one that will reunite him with Jane Foster and force him to sacrifice everything to save us all


RELEASE: Thor The Dark World 2013 iNTERNAL TRUEFRENCH MD CAM XviD

Thor.The.Dark.World.2013.iNTERNAL.TRUEFRENCH.MD.CAM.XviD.avi

Format : AVI
Format/Info : Audio Video Interleave
File size : 735 MiB
Duration : 1h 27mn
Overall bit rate : 1 169 Kbps
Writing application : Lavf52.94.0

Video
ID : 0
Format : xvid
Codec ID : xvid
Duration : 1h 27mn
Bit rate : 1 027 Kbps
Width : 720 pixels
Height : 320 pixels
Display aspect ratio : 2.25:1
Frame rate : 29.970 fps
Bits/(Pixel*Frame) : 0.149
Stream size : 646 MiB (88%)

Audio
ID : 1
Format : MPEG Audio
Format version : Version 1
Format profile : Layer 3
Mode : Joint stereo
Mode extension : MS Stereo
Codec ID : 55
Codec ID/Hint : MP3
Duration : 1h 27mn
Bit rate mode : Constant
Bit rate : 128 Kbps
Channel count : 2 channels
Sampling rate : 48.0 KHz
Compression mode : Lossy
Stream size : 80.5 MiB (11%)
Alignment : Aligned on interleaves
Interleave, duration : 24 ms (0.72 video frame)
Writing library : LAME3.98.4

 Thor The Dark World 2013 iNTERNAL TRUEFRENCH MD CAM XviD

 Thor The Dark World 2013 iNTERNAL TRUEFRENCH MD CAM XviD

 Thor The Dark World 2013 iNTERNAL TRUEFRENCH MD CAM XviD

Thor The Dark World 2013 iNTERNAL TRUEFRENCH MD CAM XviD

RapidGator

Click Here to Download

Uploaded.to

Click Here to Download

 

BillionUploads

 

Click Here to Download

180Upload

 Click Here to Download

PutLocker

Click Here to Download
Share with Your Friends
Written by DaaD