Share with Your Friends

Download Transformers Age of Extinction 2014 HDTS x264-TiTAN
iMDB

Download Transformers Age of Extinction 2014 HDTS x264-TiTAN

Plot

After the battle between the Autobots and Decepticons that leveled Chicago, humanity thinks that all alien robots are a threat. So Harold Attinger, a CIA agent, establishes a unit whose sole purpose is to hunt down all of them. But it turns out that they are aided by another alien robot who is searching for Optimus Prime. Cade Yeager, a “robotics expert”, buys an old truck and upon examining it, he thinks it’s a Transformer. When he powers it up, he discovers it’s Optimus. Later, men from the unit show up looking for Optimus. He helps Yeager and his daughter escape but are pursued by the hunter. They escape and Yeager learns from technology he took from the men that a technology magnate and defense contractor named Joshua Joyce is part of what’s going on, so they go to find out what’s going on.

Information

General
Format : Matroska
Format version : Version 2
File size : 2.00 GiB
Duration : 2h 36mn
Overall bit rate : 1 828 Kbps
Encoded date : UTC 2014-07-14 19:52:17

Video
ID : 1
Format : AVC
Format/Info : Advanced Video Codec
Format profile : High@L4.1
Format settings, CABAC : Yes
Format settings, ReFrames : 5 frames
Codec ID : V_MPEG4/ISO/AVC
Duration : 2h 36mn
Bit rate : 1 570 Kbps
Width : 720 pixels
Height : 304 pixels
Display aspect ratio : 2.35:1
Frame rate mode : Constant
Frame rate : 23.077 fps
Color space : YUV
Chroma subsampling : 4:2:0
Bit depth : 8 bits
Scan type : Progressive
Bits/(Pixel*Frame) : 0.311
Stream size : 1.68 GiB (84%)
Default : Yes
Forced : No

Audio
ID : 2
Format : AC-3
Format/Info : Audio Coding 3
Mode extension : CM (complete main)
Format settings, Endianness : Big
Codec ID : A_AC3
Duration : 2h 36mn
Bit rate mode : Constant
Bit rate : 256 Kbps
Channel(s) : 2 channels
Channel positions : Front: L R
Sampling rate : 44.1 KHz
Bit depth : 16 bits
Compression mode : Lossy
Stream size : 286 MiB (14%)
Default : Yes
Forced : No

Download Transformers Age of Extinction 2014 HDTS x264-TiTAN

PutLocker (FireDrive)

Click Here to Download

Go4Up

Click Here to Download

Uploaded.to

Click Here to Download

RapidGator

Click Here to Download
Share with Your Friends
Written by ED12