Share with Your Friends

Turbo 2013 VOBrip x264 AAC-MiLLENiUM 1.2GB
iMDB

Turbo 2013 VOBrip x264 AAC-MiLLENiUM 1.2GB

A freak accident might just help an everyday garden snail achieve his biggest dream: winning the Indy 500.

Complete name : Turbo 2013 VOBrip x264 AAC-MiLLENiUM.mp4
source : Turbo 2013_SmY 6gb vobs [thanks]
Format : MPEG-4
Format profile : Base Media
Codec ID : isom
File size : 1.15 GiB
Duration : 1h 40mn
Overall bit rate mode : Variable
Overall bit rate : 1 642 Kbps
Encoded date : UTC 2013-10-03 08:28:48
Tagged date : UTC 2013-10-03 08:28:48

Video
ID : 1
Format : AVC
Format/Info : Advanced Video Codec
Format profile : High@L4.1
Format settings, CABAC : Yes
Format settings, ReFrames : 3 frames
Codec ID : avc1
Codec ID/Info : Advanced Video Coding
Duration : 1h 40mn
Bit rate mode : Variable
Bit rate : 1 510 Kbps
Maximum bit rate : 40.0 Mbps
Width : 720 pixels
Height : 304 pixels
Display aspect ratio : 2.35:1
Frame rate mode : Constant
Frame rate : 29.970 fps
Color space : YUV
Chroma subsampling : 4:2:0
Bit depth : 8 bits
Scan type : Progressive
Bits/(Pixel*Frame) : 0.230
Stream size : 1.06 GiB (92%)
Writing library : x264 core 138 r2358 9e941d1
Encoded date : UTC 2013-10-03 08:28:48
Tagged date : UTC 2013-10-03 08:30:27
Color primaries : BT.709-5, BT.1361, IEC 61966-2-4, SMPTE RP177
Transfer characteristics : BT.709-5, BT.1361
Matrix coefficients : BT.709-5, BT.1361, IEC 61966-2-4 709, SMPTE RP177

Audio
ID : 2
Format : AAC
Format/Info : Advanced Audio Codec
Format profile : HE-AAC / LC
Codec ID : 40
Duration : 1h 40mn
Bit rate mode : Variable
Bit rate : 128 Kbps
Maximum bit rate : 137 Kbps
Channel(s) : 2 channels
Channel positions : Front: L R
Sampling rate : 48.0 KHz / 24.0 KHz
Compression mode : Lossy
Stream size : 91.7 MiB (8%)
Encoded date : UTC 2013-10-03 02:43:14
Tagged date : UTC 2013-10-03 08:30:27

notes :

R6 ? CAM ? TS ? HDrip ? WEBrip ???? ………. You decide
encode was ripped from vobs hence VOBrip
Tweaked colours, hue, sat, cont and brightness and sharpend
AUDIO IS CAM BUT DAM GOOD

Turbo 2013 VOBrip x264 AAC-MiLLENiUM 1.2GB

Turbo 2013 VOBrip x264 AAC-MiLLENiUM 1.2GB

Turbo 2013 VOBrip x264 AAC-MiLLENiUM 1.2GB

Turbo 2013 VOBrip x264 AAC-MiLLENiUM 1.2GB

RapidGator

Click Here to Download

Click Here to Download

Uploaded.to

Click Here to Download

Click Here to Download

BillionUploads

Click Here to Download

Click Here to Download

180Upload

Click Here to Download

Click Here to Download

PutLocker

Click Here to Download

Click Here to Download
Share with Your Friends
Written by DaaD