Share with Your Friends

Download Unbroken (2014) DVDSCR x265 HEVC - HDC0OL - 392MB
iMDB

Download Unbroken (2014) DVDSCR x265 HEVC – HDC0OL – 392MB

Information

X265 is the future !
General
Complete name : Unbroken (2014) DVDScr X265 HEVC – HDC0OL – 392MB
Format : MPEG-4
File size : 393 MiB
Duration : 2h 17mn 28s 32ms
Overall BitRate : 399 Kbps

Video
ID : 1
Format : HEVC
Format/Info : High Efficiency Video Coding
Format profile : Main@L2.1
Duration : 2h 17mn
Codec ID : hvc1
Bit rate : 330 Kbps
Width : 640 pixels
Height : 272 pixels
Display aspect ratio : 2.35:1
Frame rate : 23.976 fps
Frame rate mode : Constant
Stream size : 324 MiB (83%)

Audio
ID : 2
Format : MPEG Audio
Format profile : Layer 3
Codec ID : 6B
Duration : 2h 17mn 28s 32ms
Bit rate mode : Variable
Bit rate : 65.9 Kbps
Channel(s) : 2 channels
Sampling rate : 48.0 KHz
Compression mode : Lossy
Stream size : 64.8 MiB (17%)

Download Unbroken (2014) DVDSCR x265 HEVC - HDC0OL - 392MB

Download Unbroken (2014) DVDSCR x265 HEVC - HDC0OL - 392MB

Download Unbroken (2014) DVDSCR x265 HEVC - HDC0OL - 392MB

Download Unbroken (2014) DVDSCR x265 HEVC – HDC0OL – 392MB

24Up+UA+BU+HF+CU+RG+UL+180U

Click Here to Download

UPTOBOX

Click Here to Download
Share with Your Friends
Written by HDC0OL