Share with Your Friends


iMDB

Download Under The Skin 2013 1080p WEB-DL DD5.1 H264-RBG

Plot

An alien takes the body of an attractive young woman and travels Scotland in a van picking up men. As she lures her victims into a trap with the promise of sex, the men are immersed in liquid and their flesh is harvested. She is monitored by another alien, who has the body of a male motorcyclist. When she attempts to seduce a man on a beach, she witnesses the accidental drowning of a man and woman. She watches dispassionately, then kills the first man after he tries to save them and takes his body with her. When she seduces a lonely and sexually inexperienced man who has facial neurofibromatosis disfigurement, she takes pity on him and allows him to escape. The man is tracked and killed by the motorcyclist, who sets out in pursuit of the alien woman across Scotland. Troubled by the encounter with the man with neurofibromatosis, the alien begins to feel more conscious of her human body. She attempts unsuccessfully to eat human food. She is helped by a man who takes her to his home, cooks for her, and gives her a room. She trusts him and they attempt unsuccessfully to have sex. Confused, the alien flees into a deep forest and shelters in a bothy. She is woken by a commercial logger who tries to rape her and in the process tears her skin, revealing her alien body. After she extricates herself from her human skin, the logger douses her in petrol and burns her alive. The smoke from her burnt body coils into the sky

Information

Video
ID : 1
Format : AVC
Format/Info : Advanced Video Codec
Format profile : High@L4.0
Format settings, CABAC : Yes
Format settings, ReFrames : 4 frames
Codec ID : V_MPEG4/ISO/AVC
Duration : 1h 48mn
Bit rate : 4 515 Kbps
Width : 1 916 pixels
Height : 1 032 pixels
Display aspect ratio : 1.85:1
Frame rate mode : Constant
Frame rate : 23.976 fps
Color space : YUV
Chroma subsampling : 4:2:0
Bit depth : 8 bits
Scan type : Progressive
Bits/(Pixel*Frame) : 0.095
Stream size : 3.41 GiB (90%)
Title : Under.The.Skin.2013.1080p.WEB-DL.DD5.1.H264-RARBG
Language : English
Default : Yes
Forced : No
Color primaries : BT.709
Transfer characteristics : BT.709
Matrix coefficients : BT.709

Audio
ID : 2
Format : AC-3
Format/Info : Audio Coding 3
Mode extension : CM (complete main)
Format settings, Endianness : Big
Codec ID : A_AC3
Duration : 1h 48mn
Bit rate mode : Constant
Bit rate : 384 Kbps
Channel(s) : 6 channels
Channel positions : Front: L C R, Side: L R, LFE
Sampling rate : 48.0 KHz
Bit depth : 16 bits
Compression mode : Lossy
Stream size : 297 MiB (8%)
Title : Under.The.Skin.2013.1080p.WEB-DL.DD5.1.H264-RARBG
Language : English
Default : Yes
Forced : No

Download Under The Skin 2013 1080p WEB-DL DD5.1 H264-RBG

PutLocker (FireDrive)

Click Here to Download

Click Here to Download


Click Here to Download


Click Here to Download

Go4Up

Click Here to Download

Click Here to Download


Click Here to Download


Click Here to Download

Uploaded.to

Click Here to Download

Click Here to Download


Click Here to Download


Click Here to Download

RapidGator

Click Here to Download

Click Here to Download


Click Here to Download


Click Here to Download
Share with Your Friends
Written by ED12