Share with Your Friends

Download Unfaithful (2002) BluRay 720p 1GB + Watch Online
iMDB

Download Unfaithful (2002) BluRay 720p 1GB + Watch Online

Plot

A New York suburban couple’s marriage goes dangerously awry when the wife indulges in an adulterous fling.

Information

General
Format : MPEG-4
Codec ID : mp42
File size : 1.23 GiB
Duration : 2h 3mn
Overall bit rate mode : Variable
Overall bit rate : 1 430 Kbps

Video
ID : 1
Format : AVC
Format/Info : Advanced Video Codec
Format profile : High@L3.1
Format settings, CABAC : Yes
Format settings, ReFrames : 1 frame
Codec ID : avc1
Codec ID/Info : Advanced Video Coding
Duration : 2h 3mn
Bit rate : 1 235 Kbps
Maximum bit rate : 6 716 Kbps
Width : 1 280 pixels
Height : 692 pixels
Display aspect ratio : 1.85:1
Frame rate mode : Constant
Frame rate : 23.976 fps
Color space : YUV
Chroma subsampling : 4:2:0
Bit depth : 8 bits
Scan type : Progressive
Bits/(Pixel*Frame) : 0.058
Stream size : 1.07 GiB (86%)

Audio
ID : 2
Format : AAC
Format/Info : Advanced Audio Codec
Format profile : LC
Codec ID : 40
Duration : 2h 3mn
Bit rate mode : Variable
Bit rate : 192 Kbps
Maximum bit rate : 201 Kbps
Channel(s) : 2 channels
Channel positions : Front: L R
Sampling rate : 44.1 KHz
Compression mode : Lossy
Stream size : 170 MiB (13%)

Download Unfaithful (2002) BluRay 720p 1GB + Watch Online

Download Unfaithful (2002) BluRay 720p 1GB + Watch Online

Download Unfaithful (2002) BluRay 720p 1GB + Watch Online

Download Unfaithful (2002) BluRay 720p 1GB + Watch Online

Download Unfaithful (2002) BluRay 720p 1GB + Watch Online

Richard Gere/Diane Lane – Unfaithful – full movie 1080p + 720p HD (Rated R)

http://www.youtube.com/watch?v=qHkfF9QZPkw

200MB Links

ZippyShare

Click Here to Download

Click Here to Download


Click Here to Download


Click Here to Download


Click Here to Download


Click Here to Download


Click Here to Download

Single Links

24Uploading (Recommended)

Click Here to Download

HugeFile

Click Here to Download

TurboBit

Click Here to Download

Uploaded

Click Here to Download

RapidGator

Click Here to Download
Share with Your Friends
Written by ED12