Share with Your Friends

Download We Are Monster 2014 HDRip XViD-ETRG

iMDB

Download We Are Monster 2014 HDRip XViD-ETRG

Plot

On 8th February 2000 at Feltham Young Offenders Institute, Robert Stewart, a known violent racist was placed in a cell with Zahid Mubarek, a young Asian man due to be released in 6 weeks who had only been convicted of petty theft. Over this six week period, Stewart, with his unbalanced mind and deep seated racist tendencies is allowed, through indifference bordering on institutional culpability, to become the ‘monster’ he always wanted to be. Hours before Mubarek’s release, Stewart murdered him in an unprovoked attack.
Information

General
Format : AVI
Format/Info : Audio Video Interleave
File size : 698 MiB
Duration : 1h 28mn
Overall bit rate : 1 099 Kbps

Video
ID : 0
Format : MPEG-4 Visual
Format profile : Advanced Simple L5
Format settings, BVOP : 2
Format settings, QPel : No
Format settings, GMC : No warppoints
Format settings, Matrix : Default (H.263)
Muxing mode : Packed bitstream
Codec ID : XVID
Codec ID/Hint : XviD
Duration : 1h 28mn
Bit rate : 962 Kbps
Width : 640 pixels
Height : 344 pixels
Display aspect ratio : 1.860
Frame rate : 24.000 fps
Color space : YUV
Chroma subsampling : 4:2:0
Bit depth : 8 bits
Scan type : Progressive
Compression mode : Lossy
Bits/(Pixel*Frame) : 0.182
Stream size : 611 MiB (87%)
Writing library : XviD 66

Audio
ID : 1
Format : MPEG Audio
Format version : Version 1
Format profile : Layer 3
Mode : Joint stereo
Codec ID : 55
Codec ID/Hint : MP3
Duration : 1h 28mn
Bit rate mode : Constant
Bit rate : 128 Kbps
Channel(s) : 2 channels
Sampling rate : 48.0 KHz
Compression mode : Lossy
Stream size : 81.3 MiB (12%)
Alignment : Split accross interleaves
Interleave, duration : 42 ms (1.00 video frame)
Interleave, preload duration : 500 ms
Writing library : LAME3.99r
Encoding settings : -m j -V 4 -q 3 -lowpass 17 -b 128
Download We Are Monster 2014 HDRip XViD-ETRG

Download We Are Monster 2014 HDRip XViD-ETRG

24Uploading (Recommended)

Click Here to Download

UptoBox

Click Here to Download

HugeFile

Click Here to Download

TurboBit

Click Here to Download

Uploaded

Click Here to Download

RapidGator

Click Here to Download
Share with Your Friends
Written by ED12