Share with Your Friends

Download Were The Millers WEBRip AAC x264 V2 500MB


iMDB

Download Were The Millers WEBRip AAC x264 V2 500MB

Plot
A veteran pot dealer creates a fake family as part of his plan to move a huge shipment of weed into the U.S. from Mexico.

Information
Format : MPEG-4
Format profile : Base Media
Codec ID : isom
File size : 500 MiB
Duration : 1h 44mn
Overall bit rate mode : Variable
Overall bit rate : 668 Kbps

Video
ID : 1
Format : AVC
Format/Info : Advanced Video Codec
Format profile : Main@L2.2
Format settings, CABAC : Yes
Format settings, ReFrames : 4 frames
Codec ID : avc1
Codec ID/Info : Advanced Video Coding
Duration : 1h 44mn
Bit rate : 600 Kbps
Maximum bit rate : 2 157 Kbps
Width : 720 pixels
Height : 288 pixels
Display aspect ratio : 2.500
Frame rate mode : Constant
Frame rate : 25.000 fps
Color space : YUV
Chroma subsampling : 4:2:0
Bit depth : 8 bits
Scan type : Progressive
Bits/(Pixel*Frame) : 0.116
Stream size : 449 MiB (90%)
Writing library : x264 core 133 r2334 a3ac64b

Audio
ID : 2
Format : AAC
Format/Info : Advanced Audio Codec
Format profile : LC
Codec ID : 40
Duration : 1h 44mn
Bit rate mode : Variable
Bit rate : 64.0 Kbps
Maximum bit rate : 69.7 Kbps
Channel(s) : 2 channels
Channel positions : Front: L R
Sampling rate : 44.1 KHz
Compression mode : Lossy
Stream size : 47.9 MiB (10%)

Download Title

Download Were The Millers WEBRip AAC x264 V2 500MB

Uploaded,Rapidgator,Extabit,Ultramegabit,Hugefiles

Click Here to Download
Share with Your Friends
Written by master