Share with Your Friends


iMDB

Download White Collar Hooligan 3 2014 1080p WEB-DL DD5.1 H264-RBG

Plot

Mike and Eddie manage to track down the villain responsible for the death of Katie to exact their revenge, but all does not go according to plan in Rio against the backdrop of the World Cup.

Information

Video
ID : 1
Format : AVC
Format/Info : Advanced Video Codec
Format profile : High@L4.0
Format settings, CABAC : Yes
Format settings, ReFrames : 5 frames
Codec ID : V_MPEG4/ISO/AVC
Duration : 1h 41mn
Bit rate : 4 080 Kbps
Width : 1 912 pixels
Height : 800 pixels
Display aspect ratio : 2.40:1
Frame rate mode : Constant
Frame rate : 25.000 fps
Color space : YUV
Chroma subsampling : 4:2:0
Bit depth : 8 bits
Scan type : Progressive
Bits/(Pixel*Frame) : 0.107
Stream size : 2.91 GiB (90%)
Title : White.Collar.Hooligan.3.2014.1080p.WEB-DL.DD5.1.H264-RARBG
Language : English
Default : Yes
Forced : No
Color primaries : BT.709
Transfer characteristics : BT.709
Matrix coefficients : BT.709

Audio
ID : 2
Format : AC-3
Format/Info : Audio Coding 3
Mode extension : CM (complete main)
Format settings, Endianness : Big
Codec ID : A_AC3
Duration : 1h 41mn
Bit rate mode : Constant
Bit rate : 384 Kbps
Channel(s) : 6 channels
Channel positions : Front: L C R, Side: L R, LFE
Sampling rate : 48.0 KHz
Bit depth : 16 bits
Compression mode : Lossy
Stream size : 280 MiB (8%)
Title : White.Collar.Hooligan.3.2014.1080p.WEB-DL.DD5.1.H264-RARBG
Language : English
Default : Yes
Forced : No

Download White Collar Hooligan 3 2014 1080p WEB-DL DD5.1 H264-RBG

PutLocker (FireDrive)

Click Here to Download

Uploaded.to

Click Here to Download

fileom

Click Here to Download
Share with Your Friends
Written by ED12