Share with Your Friends


iMDB

Download White Collar Hooligan 3 2014 WEB-DL XviD MP3-RBG

Plot

Mike and Eddie manage to track down the villain responsible for the death of Katie to exact their revenge, but all does not go according to plan in Rio against the backdrop of the World Cup.

Information

Format : AVI
Format/Info : Audio Video Interleave
File size : 1.24 GiB
Duration : 1h 41mn
Overall bit rate : 1 740 Kbps
Movie name : RARBG.COM – White.Collar.Hooligan.3.2014.WEB-DL.XviD.MP3-RARBG
Writing library : VirtualDub build 35491/release
Comment : RARBG.COM – White.Collar.Hooligan.3.2014.WEB-DL.XviD.MP3-RARBG

Video
ID : 0
Format : MPEG-4 Visual
Format profile : Simple@L5
Format settings, BVOP : No
Format settings, QPel : No
Format settings, GMC : No warppoints
Format settings, Matrix : Default (H.263)
Codec ID : XVID
Codec ID/Hint : XviD
Duration : 1h 41mn
Bit rate : 1 536 Kbps
Width : 720 pixels
Height : 300 pixels
Display aspect ratio : 2.40:1
Frame rate : 25.000 fps
Color space : YUV
Chroma subsampling : 4:2:0
Bit depth : 8 bits
Scan type : Progressive
Compression mode : Lossy
Bits/(Pixel*Frame) : 0.284
Stream size : 1.09 GiB (88%)
Writing library : Lavc55.61.100

Audio
ID : 1
Format : MPEG Audio
Format version : Version 1
Format profile : Layer 3
Mode : Joint stereo
Codec ID : 55
Codec ID/Hint : MP3
Duration : 1h 41mn
Bit rate mode : Constant
Bit rate : 192 Kbps
Channel(s) : 2 channels
Sampling rate : 48.0 KHz
Compression mode : Lossy
Stream size : 140 MiB (11%)
Alignment : Aligned on interleaves
Interleave, duration : 24 ms (0.60 video frame)
Interleave, preload duration : 504 ms

Download White Collar Hooligan 3 2014 WEB-DL XviD MP3-RBG

PutLocker (FireDrive)

Click Here to Download

FileOM

Click Here to Download

Uploaded.to

Click Here to Download
Share with Your Friends
Written by ED12