Share with Your Friends

Download Wolf of Wall Street 2013 720p HC WEBRip x264 AC3-TiTAN
iMDB

Download Wolf of Wall Street 2013 720p HC WEBRip x264 AC3-TiTAN

Plot

Based on the true story of Jordan Belfort, from his rise to a wealthy stockbroker living the high life to his fall involving crime, corruption and the federal government.

In The Wolf of Wall Street DiCaprio plays Belfort, a Long Island penny stockbroker who served 20 months in prison for defrauding investors in a massive 1990s securities scheme that involved widespread corruption on Wall Street and in the corporate banking world, including shoe designer Steve Madden.

Information

General

Format : Matroska
Format version : Version 2
File size : 3.03 GiB
Duration : 2h 59mn
Overall bit rate mode : Variable
Overall bit rate : 2 420 Kbps
Encoded date : UTC 2014-03-08 18:34:41
Writing application : mkvmerge v6.8.0 (‘Theme for Great Cities’) 32bit built on >>
Mar 2 2014 21:27:07
Writing library : libebml v1.3.0 + libmatroska v1.4.1

Video
ID : 1
Format : AVC
Format/Info : Advanced Video Codec
Format profile : High – L4.1
Format settings, CABAC : Yes
Format settings, ReFrames : 3 frames
Codec ID : V_MPEG4/ISO/AVC
Duration : 2h 59mn
Bit rate mode : Variable
Bit rate : 2 116 Kbps
Maximum bit rate : 40.0 Mbps
Width : 1 264 pixels
Height : 528 pixels
Display aspect ratio : 2.40:1
Frame rate mode : Constant
Frame rate : 29.970 fps
Color space : YUV
Chroma subsampling : 4:2:0
Bit depth : 8 bits
Scan type : Progressive
Bits/(Pixel*Frame) : 0.106
Stream size : 2.65 GiB (87%)
Writing library : x264 core 140 r2377 1ca7bb9
Default : Yes
Forced : No
Color primaries : BT.709
Transfer characteristics : BT.709
Matrix coefficients : BT.709

Audio
ID : 2
Format : AC-3
Format/Info : Audio Coding 3
Mode extension : CM (complete main)
Format settings, Endianness : Big
Codec ID : A_AC3
Duration : 2h 59mn
Bit rate mode : Constant
Bit rate : 256 Kbps
Channel(s) : 2 channels
Channel positions : Front: L R
Sampling rate : 44.1 KHz
Bit depth : 16 bits
Compression mode : Lossy
Stream size : 329 MiB (11%)
Default : Yes
Forced : No

Download Wolf of Wall Street 2013 720p HC WEBRip x264 AC3-TiTAN

Download Wolf of Wall Street 2013 720p HC WEBRip x264 AC3-TiTAN

Download Wolf of Wall Street 2013 720p HC WEBRip x264 AC3-TiTAN

Download Wolf of Wall Street 2013 720p HC WEBRip x264 AC3-TiTAN

Download Wolf of Wall Street 2013 720p HC WEBRip x264 AC3-TiTAN

Download Wolf of Wall Street 2013 720p HC WEBRip x264 AC3-TiTAN

Download Wolf of Wall Street 2013 720p HC WEBRip x264 AC3-TiTAN

HugeFile

Click Here to Download

Click Here to Download


Click Here to Download


Click Here to Download

MultiUpload

Click Here to Download

Click Here to Download


Click Here to Download


Click Here to Download

180Upload

Click Here to Download

Click Here to Download


Click Here to Download


Click Here to Download

Sockshare

Click Here to Download

Click Here to Download


Click Here to Download


Click Here to Download

TurboBit

Click Here to Download

Click Here to Download


Click Here to Download


Click Here to Download

Uploaded.to

Click Here to Download

Click Here to Download


Click Here to Download


Click Here to Download

NetLoad

Click Here to Download

Click Here to Download


Click Here to Download


Click Here to Download

RapidGator

Click Here to Download

Click Here to Download


Click Here to Download


Click Here to Download
Share with Your Friends
Written by ED12