Share with Your Friends

Download X-Men Days of Future Past 2014 CAM v2 NEW GOOD SOURCE XviD MP3-RBG
iMDB

Download X-Men Days of Future Past 2014 CAM v2 NEW GOOD SOURCE XviD MP3-RBG

Plot

The ultimate X-Men ensemble fights a war for the survival of the species across two time periods in X-Men: Days of Future Past. The characters from the original X-Men film trilogy join forces with their younger selves from X-Men: First Class in an epic battle that must change the past – to save our future..

Information

Info:
Format : AVI
Format/Info : Audio Video Interleave
File size : 1.52 GiB
Duration : 2h 2mn
Overall bit rate : 1 775 Kbps
Movie name RBG
Writing library : VirtualDub build 35491/release
Comment RBG

Video
ID : 0
Format : MPEG-4 Visual
Format profile : Simple@L5
Format settings, BVOP : No
Format settings, QPel : No
Format settings, GMC : No warppoints
Format settings, Matrix : Default (H.263)
Codec ID : XVID
Codec ID/Hint : XviD
Duration : 2h 2mn
Bit rate : 1 634 Kbps
Width : 720 pixels
Height : 288 pixels
Display aspect ratio : 2.500
Frame rate : 23.976 fps
Color space : YUV
Chroma subsampling : 4:2:0
Bit depth : 8 bits
Scan type : Progressive
Compression mode : Lossy
Bits/(Pixel*Frame) : 0.329
Stream size : 1.40 GiB (92%)
Writing library : Lavc55.61.100

Audio
ID : 1
Format : MPEG Audio
Format version : Version 1
Format profile : Layer 3
Mode : Joint stereo
Mode extension : MS Stereo
Codec ID : 55
Codec ID/Hint : MP3
Duration : 2h 2mn
Bit rate mode : Constant
Bit rate : 128 Kbps
Channel(s) : 2 channels
Sampling rate : 48.0 KHz
Compression mode : Lossy
Stream size : 112 MiB (7%)
Alignment : Aligned on interleaves
Interleave, duration : 24 ms (0.58 video frame)
Interleave, preload duration : 504 ms
Writing library : LAME3.99.5

Download X-Men Days of Future Past 2014 CAM v2 NEW GOOD SOURCE XviD MP3-RBG

MultiUpload

Click Here to Download

Click Here to Download


Click Here to Download


Click Here to Download

PutLocker (FireDrive)

Click Here to Download

Click Here to Download


Click Here to Download


Click Here to Download

Uploaded.to

Click Here to Download

Click Here to Download


Click Here to Download


Click Here to Download

RapidGator

Click Here to Download

Click Here to Download


Click Here to Download


Click Here to Download
Share with Your Friends
Written by ED12