Share with Your Friends

Download X Night of Vengeance (2011) BluRay 1080p 1.2GB - YIFY
iMDB

Download X Night of Vengeance (2011) BluRay 1080p 1.2GB – YIFY

Holly Rowe’s retiring, kissing her callgirl life goodbye. She just has to get through her last night on the job. Shay Ryan’s a teenage runaway, broke and alone. She just has to get through her first night as a hooker. Then fate throws them together on a job that goes horribly wrong and they’re trapped on an out-of-control roller coaster ride, through the twilight zone of sex-for-sale. X is a sizzling adults-only thriller about love, chance, escape and the oldest profession experienced by two women, on a night that will change their lives forever.

Information

General
Format : MPEG-4
Format profile : Base Media
Codec ID : isom
File size : 1.24 GiB
Duration : 1h 29mn
Overall bit rate mode : Variable
Overall bit rate : 1 983 Kbps

Video
ID : 1
Format : AVC
Format/Info : Advanced Video Codec
Format profile : High L4.1
Format settings, CABAC : Yes
Format settings, ReFrames : 4 frames
Codec ID : avc1
Codec ID/Info : Advanced Video Coding
Duration : 1h 29mn
Bit rate : 1 885 Kbps
Maximum bit rate : 8 999 Kbps
Width : 1 920 pixels
Height : 1 080 pixels
Display aspect ratio : 16:9
Frame rate mode : Constant
Frame rate : 23.976 fps
Color space : YUV
Chroma subsampling : 4:2:0
Bit depth : 8 bits
Scan type : Progressive
Bits/(Pixel*Frame) : 0.038
Stream size : 1.18 GiB (95%)

Audio
ID : 2
Format : AAC
Format/Info : Advanced Audio Codec
Format profile : LC
Codec ID : 40
Duration : 1h 29mn
Bit rate mode : Variable
Bit rate : 93.8 Kbps
Maximum bit rate : 104 Kbps
Channel(s) : 2 channels
Channel positions : Front: L R
Sampling rate : 48.0 KHz
Compression mode : Lossy
Stream size : 60.2 MiB (5%)
Language : English

Download X Night of Vengeance (2011) BluRay 1080p 1.2GB - YIFY

Download X Night of Vengeance (2011) BluRay 1080p 1.2GB – YIFY

24Uploading (Recommended)

Click Here to Download

UptoBox

Click Here to Download

HugeFile

Click Here to Download

TurboBit

Click Here to Download

Uploaded

Click Here to Download

RapidGator

Click Here to Download
Share with Your Friends
Written by ED12